#TITLE:THE SAFARI;
#SUBTITLE:;
#ARTIST:Lion Musashi;
#TITLETRANSLIT:;
#SUBTITLETRANSLIT:;
#ARTISTTRANSLIT:;
#CREDIT:;
#BANNER:The Safari.png;
#BACKGROUND:The Safari-bg.png;
#LYRICSPATH:;
#CDTITLE:!toph-cdtitle.png;
#MUSIC:Lion Musashi - The Safari.mp3;
#OFFSET:-0.338;
#SAMPLESTART:48.700;
#SAMPLELENGTH:16.160;
#SELECTABLE:YES;
#BPMS:0.000=135.000;
#STOPS:;
#BGCHANGES:;
// cache tags:
#FIRSTBEAT:0.000;
#LASTBEAT:208.500;
#SONGFILENAME:Songs/Music V.I.P ^_^/The Safari [Toph]/The Safari.sm;
#HASMUSIC:1;
#HASBANNER:1;
#MUSICLENGTH:97.208;
// end cache tags

//---------------dance-single - ----------------
#NOTES:
     dance-single:
     :
     Easy:
     4:
     0.409,0.402,0.267,0.041,0.041,248.000,26.000,4.000,0.000,0.000:  // measure 1
0000
0000
0000
0000
,  // measure 2
0000
0000
1001
0010
,  // measure 3
0100
1000
0101
1000
,  // measure 4
0010
1001
0000
0100
,  // measure 5
0010
0001
0000
0100
,  // measure 6
0001
0010
0000
0010
,  // measure 7
0001
0010
0100
1000
,  // measure 8
0001
0100
0010
1000
,  // measure 9
0001
0010
0001
0100
,  // measure 10
0010
1000
0001
0000
1000
0000
0100
0000
,  // measure 11
0010
0000
0001
0000
0001
0000
0001
1000
,  // measure 12
0001
0000
0010
0000
0001
0000
1000
0100
,  // measure 13
1000
0000
0001
0000
1000
0000
0010
0100
,  // measure 14
0010
0000
1000
0000
0100
0000
1000
0100
,  // measure 15
1000
0000
0001
0000
0010
0000
0001
1000
,  // measure 16
0001
1000
0010
0000
0100
0000
0001
1000
,  // measure 17
0001
0000
0010
0000
0001
0000
1000
0100
,  // measure 18
1000
0010
0100
0001
,  // measure 19
0100
0000
0010
0000
0010
0000
0010
0100
,  // measure 20
0010
0000
1001
0000
1010
0000
1000
0100
,  // measure 21
1000
0100
1000
0000
1001
0000
0001
0100
,  // measure 22
0001
0100
0010
0000
0110
0000
0010
1000
,  // measure 23
0010
1000
0010
0000
1010
0000
0000
1000
,  // measure 24
0000
1000
0010
0000
0110
0000
0100
1000
,  // measure 25
0100
1000
0100
0000
0101
0000
0001
0100
,  // measure 26
0001
0100
0010
0000
1010
0000
1000
0001
,  // measure 27
1000
0000
0001
0000
0010
0000
0000
0100
0000
0000
1000
0000
0001
0000
0000
0000
,  // measure 28
0100
0000
0000
0000
0010
0000
0000
0010
0000
0000
0010
0000
0000
0000
0000
0000
,  // measure 29
1000
0000
0000
0000
0100
0000
0000
0100
0000
0000
0100
0000
0000
0000
0000
0000
,  // measure 30
0010
0000
0000
0000
0001
0000
0000
0001
0000
0000
0001
0000
0000
0000
0000
0000
,  // measure 31
1000
0000
0000
0000
0010
0000
0000
0010
0000
0000
0010
0000
0100
0000
0000
0000
,  // measure 32
0001
1000
0100
0010
,  // measure 33
0001
0000
0000
0000
0000
0000
1000
0000
0000
1000
0000
1000
0000
0000
0000
0000
,  // measure 34
0010
0000
0000
0000
0100
0000
0000
0100
0000
0000
0100
0000
0000
0000
0000
0000
,  // measure 35
0001
1100
0101
0010
,  // measure 36
0010
0000
1000
0000
1000
0000
1000
0001
,  // measure 37
1000
0000
0110
0000
1001
0000
0001
0100
,  // measure 38
0001
0100
0001
0000
1001
0000
1000
0100
,  // measure 39
1000
0100
0010
0000
0110
0000
0010
0001
,  // measure 40
0010
0001
0100
0000
0110
0000
0000
1000
,  // measure 41
0000
1000
0000
0000
0011
0000
0001
0010
,  // measure 42
0001
0010
0001
0000
1001
0000
1000
0010
,  // measure 43
1000
0010
0100
0000
0101
0000
0001
1000
,  // measure 44
0001
1000
0010
0000
0010
0000
0010
0100
,  // measure 45
0010
0000
1001
0000
0110
0000
1000
0100
,  // measure 46
1000
0100
1000
0000
0101
0000
0010
1000
,  // measure 47
0010
1000
0001
0000
0110
0000
1000
0001
,  // measure 48
1000
0001
1000
0000
0110
0000
0001
1000
,  // measure 49
0001
1000
0010
0000
0100
0000
0001
1000
,  // measure 50
0001
0000
0010
0000
0100
0000
1000
0001
,  // measure 51
1000
0000
0100
0000
1000
0000
0010
0100
,  // measure 52
0010
0000
2000
3000
0200
0300
0020
0030
,  // measure 53
0002
0003
0000
0000
0000
0000
0000
0000
;

//---------------dance-single - ----------------
#NOTES:
     dance-single:
     :
     Medium:
     7:
     0.607,0.563,0.545,0.082,0.427,352.000,53.000,8.000,0.000,0.000:  // measure 1
0000
0000
0000
0000
,  // measure 2
0000
0000
0000
0000
1000
0001
0100
0010
,  // measure 3
1000
0001
1000
0000
0100
0000
0000
0000
0010
0000
0001
0000
0100
0000
0001
1000
,  // measure 4
0001
0000
0010
0000
0100
0000
0000
0000
1000
0000
0000
0001
0000
0100
0000
0001
,  // measure 5
0000
0000
0000
1000
0100
0000
0000
0000
0010
0000
0000
0001
0000
1000
0000
0001
,  // measure 6
0010
0000
0100
0000
1000
0000
0000
0000
0001
0000
0000
0100
0000
0010
0000
0100
,  // measure 7
0000
0000
0000
0001
1000
0000
0000
0000
0100
0000
0000
0000
0010
0000
0001
0000
,  // measure 8
0100
0010
1001
0000
1010
0000
0110
0000
,  // measure 9
0101
0000
0000
0000
1001
0000
0000
0000
1100
0000
0000
0000
0010
0000
0000
0001
,  // measure 10
0100
0010
1010
0000
0101
0000
1100
0000
,  // measure 11
0011
0000
0000
0000
1000
0001
0000
0100
0000
0010
0000
1000
0002
0000
0100
0000
,  // measure 12
1003
0000
1001
0000
0010
0000
1000
0100
,  // measure 13
0010
0100
1001
0000
0110
0000
0001
0100
,  // measure 14
0010
1000
0101
0000
1010
0000
0001
0010
,  // measure 15
0100
1000
0101
0000
1010
0000
0001
1000
,  // measure 16
0100
0010
0100
0000
1001
0000
0000
0000
0110
0000
0000
0000
0010
0000
1000
0000
,  // measure 17
0100
0010
1001
0000
0110
0000
1000
0001
,  // measure 18
0100
0010
1100
0000
0011
0000
1000
0010
,  // measure 19
0100
0000
0000
0000
0010
0001
0000
0100
0000
0010
0000
1000
0002
0000
0100
0000
,  // measure 20
1003
0000
0000
0000
0110
0000
0000
0000
1001
0000
0000
0000
1000
0100
1000
0100
,  // measure 21
1000
0000
0001
0000
0011
0000
0000
0000
1100
0000
0000
0000
0001
0100
0001
0100
,  // measure 22
0001
0000
1000
0000
1010
0000
0000
0000
0110
0000
0000
0000
0001
1000
0001
1000
,  // measure 23
0001
1000
1100
0000
0011
0000
0001
1100
,  // measure 24
0000
0000
0101
0000
0110
0000
0000
0000
1001
0000
0000
0000
0010
0100
0010
0100
,  // measure 25
0010
0000
0001
0000
1001
0000
0000
0000
0101
0000
0000
0000
0010
1000
0010
1000
,  // measure 26
0010
0000
0100
0000
0101
0000
0000
0000
1100
0000
0000
0000
0010
0001
0010
0001
,  // measure 27
0010
0000
0100
0000
1001
0000
0000
1100
0000
0000
0101
0000
0010
0000
1000
0000
,  // measure 28
0001
0010
0001
0010
0100
0000
0000
1000
0000
0000
0001
0000
0000
0010
0000
0000
,  // measure 29
0001
0000
0100
0000
0010
0000
0000
1000
0000
0000
0001
0000
0000
0010
0000
0000
,  // measure 30
0100
0000
1000
0000
0010
0000
0000
0100
0000
0000
0001
0000
0000
0010
0000
0000
,  // measure 31
0001
0000
0100
0000
0010
0000
0000
1000
0000
0000
0100
0000
0010
0000
0001
0000
,  // measure 32
1000
0000
0010
0000
0100
0000
0000
0001
0000
0000
1000
0000
0000
0100
0000
0000
,  // measure 33
0010
0000
0001
0000
0000
0000
1001
0000
0000
0100
0000
0010
0000
0001
0000
0000
,  // measure 34
0100
0000
0010
0000
1000
0000
0000
0001
0000
0000
0010
0000
0100
0000
1000
0000
,  // measure 35
0010
0100
1001
0000
0110
0000
1000
0000
,  // measure 36
1000
0000
0000
0000
0001
0010
0000
0001
0000
0100
0000
0010
2000
0000
0100
0000
,  // measure 37
3001
0000
0000
0000
1000
0000
0100
0000
0010
0000
0000
0000
0001
1000
0001
1000
,  // measure 38
0001
0000
0100
0000
0010
0000
1000
0000
0001
0000
0000
0000
0010
0100
0010
0100
,  // measure 39
0010
0000
0001
0000
1000
0000
0010
0000
0100
0000
0000
0000
0001
1000
0001
1000
,  // measure 40
0001
0010
0001
0100
0010
0000
0001
1100
,  // measure 41
0000
0000
0101
0000
0000
0000
0000
0000
1001
0000
0000
0000
1000
0100
1000
0100
,  // measure 42
1000
0000
0001
0000
0100
0000
0010
0000
1000
0000
0000
0000
0001
0010
0001
0010
,  // measure 43
0001
0000
0100
0000
0010
0000
1000
0000
0100
0000
0000
0000
0010
0001
0010
0001
,  // measure 44
0010
0000
0100
0000
1000
0001
0000
0100
0000
0010
0000
1000
0002
0000
0100
0000
,  // measure 45
1003
0000
0000
0000
0010
0000
0000
1000
0000
0000
0100
0000
1000
0100
1000
0100
,  // measure 46
1000
0000
0010
0000
1000
0000
0000
0100
0000
0000
0010
0000
0001
0100
0001
0100
,  // measure 47
0001
0000
1000
0000
0100
0000
0000
0010
0000
0000
0001
0000
1000
0010
1000
0010
,  // measure 48
1000
0000
0001
0000
1000
0000
0000
0100
0000
0000
1000
0000
0001
0000
0000
0100
,  // measure 49
0000
0000
0100
0010
1000
0000
0000
0000
0101
0000
0000
0000
1000
0000
0100
0000
,  // measure 50
1000
0010
0110
0000
1001
0000
0010
0001
,  // measure 51
0010
0100
1100
0000
0101
0000
0010
1000
,  // measure 52
0100
0010
0002
0003
0020
0030
0200
0300
,  // measure 53
2000
3000
0000
0000
0000
0000
0000
0000
;

//---------------dance-single - ----------------
#NOTES:
     dance-single:
     :
     Hard:
     10:
     0.904,0.804,0.556,0.041,1.000,557.000,54.000,4.000,0.000,0.000:  // measure 1
0000
0000
0000
0000
,  // measure 2
0000
0000
0000
0000
0000
0000
0000
0000
1001
0000
1000
0100
0010
0000
0001
0100
,  // measure 3
0010
1000
0001
0010
0100
0000
0000
0000
1001
0000
0001
0100
0010
1000
0100
0010
,  // measure 4
0001
0010
0100
1000
0011
0000
0000
0001
0000
0000
0001
1000
0000
0100
0000
1000
,  // measure 5
0000
0000
0000
0100
1000
0100
0000
1000
0000
0100
1000
0001
0000
0100
0000
0001
,  // measure 6
0010
0000
0100
0000
1000
0010
0000
1000
0000
0010
1000
0001
0000
0010
0000
0001
,  // measure 7
0000
0000
0000
0000
0000
0000
0000
0000
0000
0000
0000
0000
0100
0000
0000
0001
0000
0000
0000
0000
0000
0100
0000
0000
0000
0000
0000
0001
0000
0000
0100
0000
0000
0010
0000
0000
1000
0000
0000
0100
0000
0000
1000
0000
0100
0000
0010
0000
,  // measure 8
0001
1000
0010
0100
1001
0000
0000
0000
0011
0000
0000
1000
0001
0100
0000
0010
,  // measure 9
1000
0000
1000
0100
0010
0001
0000
0001
0100
0000
0000
0010
1000
0100
0000
0010
,  // measure 10
0001
1000
0001
1000
0010
0100
0000
0010
0100
0000
0001
0100
0010
1000
0000
1000
,  // measure 11
0100
0000
0010
0001
0100
0010
0000
0010
1000
0010
0100
0001
1000
0100
0010
0001
,  // measure 12
0100
0010
0100
0001
1001
0000
0000
1000
0100
0000
1000
0000
0010
0000
0100
0000
,  // measure 13
1001
0000
0010
0000
0001
0100
0000
0010
1000
0001
0010
0000
0001
0000
0100
0000
,  // measure 14
1001
0000
0010
0000
1000
0100
0000
1000
0001
0100
0010
0000
0010
0000
0100
0000
,  // measure 15
0011
0000
1000
0000
0001
0100
0000
0010
1000
0001
0010
0000
0001
0100
0010
1000
,  // measure 16
0100
0010
0001
1000
0110
0000
0000
0010
0100
0000
0010
0000
1000
0000
0100
0000
,  // measure 17
1001
0000
0010
0000
0001
0100
0000
0010
0100
0001
1000
0000
0001
0000
0100
0000
,  // measure 18
1001
0000
0010
0000
1000
0100
0000
0010
0001
0100
0010
0000
1000
0000
0000
0000
,  // measure 19
1001
0000
0010
0000
0001
0100
0000
0100
0010
0100
0001
0100
0010
1000
0100
0010
,  // measure 20
0001
0100
0010
1000
1001
0000
0000
0001
0100
0000
0001
0000
1000
0100
1000
0100
,  // measure 21
1100
0000
0010
0000
0001
0100
0000
0010
0100
0001
1000
0000
0010
1000
0010
1000
,  // measure 22
1010
0000
0001
0000
0100
0010
0000
0010
0100
0001
1000
0000
1000
0010
1000
0010
,  // measure 23
1010
0000
0010
0000
0100
0001
0000
0100
0001
0010
0100
0000
1000
0001
0010
0001
,  // measure 24
0100
0010
1000
0100
0110
0000
0000
0001
1000
0000
0010
0000
1000
0001
1000
0001
,  // measure 25
1001
0000
0010
0000
0001
0100
0000
0010
1000
0001
0010
0000
0010
0100
0010
0100
,  // measure 26
0110
0000
1000
0000
0001
0100
0000
0010
0100
0001
1000
0000
0010
1000
0010
1000
,  // measure 27
1010
0000
1000
0001
0100
0010
0100
0010
0100
0010
0100
0010
1000
0000
0100
0000
,  // measure 28
0010
0000
0001
0000
0010
0000
0001
1000
0100
0000
0000
0000
0000
0000
0110
0000
0000
0000
0000
0000
0011
0000
0000
0000
0000
0000
1000
0000
0000
0000
0000
0000
,  // measure 29
0010
0000
0100
0000
1001
0000
0000
1010
0000
0000
0101
0000
0000
0010
0000
0000
,  // measure 30
0001
0000
0100
0010
1010
0000
0000
1100
0000
0000
0101
0000
0000
0010
0000
0000
,  // measure 31
0001
0000
1000
0000
0110
0000
0000
0101
0000
0000
1100
0000
0000
0010
0100
0010
,  // measure 32
0001
0010
0100
1000
1001
0000
0000
0010
1000
0000
0100
0000
1000
0001
0000
0000
,  // measure 33
0110
0000
1000
0000
0000
0000
1100
0000
0000
0110
0000
0011
0000
1000
0001
0000
,  // measure 34
0100
0000
0010
1000
1001
0000
0000
1100
0000
0000
0101
0000
0000
0010
0100
0010
,  // measure 35
0001
0100
0010
1000
1100
0000
0000
0000
0011
0000
0000
1000
0001
0000
0000
1000
,  // measure 36
0001
0100
0010
1000
0100
0010
0000
0010
0100
0010
0001
0010
0001
0100
0010
1000
,  // measure 37
0100
0010
0100
1000
1001
0000
0000
0001
0100
0000
0001
0000
1000
0100
1000
0100
,  // measure 38
1100
0000
0010
0000
0001
0100
0000
0010
0100
0001
1000
0000
0010
1000
0010
1000
,  // measure 39
1010
0000
0001
0000
0100
0010
0000
0010
0100
0001
1000
0000
1000
0010
1000
0010
,  // measure 40
1010
0000
0010
0000
0100
0001
0000
0100
0001
0010
0100
0000
1000
0001
0010
0001
,  // measure 41
0100
0010
1000
0100
0010
0001
0100
0010
1001
0000
0000
1000
1000
0100
1000
0100
,  // measure 42
1100
0000
0010
0000
0001
0100
0000
0010
1000
0001
0010
0000
0010
0100
0010
0100
,  // measure 43
0110
0000
1000
0000
0001
0100
0000
0010
0100
0001
1000
0000
0010
1000
0010
1000
,  // measure 44
1010
0000
1000
0001
0100
0010
0000
0010
0100
0010
1000
0001
0010
0001
0100
0010
,  // measure 45
1000
0100
0010
0001
1001
0000
0000
0001
0100
0001
0010
0000
0100
1000
0001
0100
,  // measure 46
1010
0000
0001
0000
1000
0100
0000
0010
0001
1000
0010
0000
0100
0001
0010
0100
,  // measure 47
1001
0000
0010
0000
0100
1000
0000
0010
0100
0001
1000
0000
0001
0010
0100
1000
,  // measure 48
0011
0000
1000
0000
0001
0100
0000
0010
1000
0001
0010
0000
0001
0100
0010
1000
,  // measure 49
0100
0000
0010
0001
1000
0000
0000
0001
1000
0000
0010
0000
1000
0001
1000
0001
,  // measure 50
1000
0000
0010
0000
1000
0100
0000
0010
0001
0100
0010
0000
1000
0100
1000
0100
,  // measure 51
1000
0000
0010
0000
0100
0001
0000
0100
0001
1000
0100
0000
0010
0001
0010
0001
,  // measure 52
0010
0100
2000
3000
0020
0030
0200
0300
,  // measure 53
0002
0003
0000
0000
0000
0000
0000
0000
;

//---------------dance-single - ----------------
#NOTES:
     dance-single:
     :
     Challenge:
     11:
     1.000,1.000,1.000,0.041,1.000,696.000,192.000,4.000,0.000,0.000:  // measure 1
1100
0000
0000
0000
0000
0000
1000
0000
0000
0100
0000
0000
0011
0000
0000
0000
0000
0000
1000
0000
0001
0000
0100
0000
0010
0000
0000
0010
0000
0000
1000
0000
0000
0001
0000
0000
1100
0000
0000
0000
0000
0000
1000
0000
0000
0100
0000
0000
,  // measure 2
0011
0000
0000
0000
0000
0000
1000
0000
0001
0000
0100
0000
0010
0000
0000
0010
0000
0000
1000
0000
0000
0001
0000
0000
1100
0000
0000
0000
0000
0000
1000
0000
0000
0100
0000
0000
0011
0000
0000
0000
0000
0000
1000
0000
0001
0000
0100
0000
,  // measure 3
0010
0000
0000
0010
0000
0000
1000
0000
0000
0001
0000
0000
0010
0000
0000
0000
0000
0000
0000
0000
0000
0000
0000
0000
1100
0000
0000
0000
0000
0000
1000
0000
0000
0100
0000
0000
1000
0000
0100
0000
0010
0000
0001
0000
0010
0000
0100
0000
,  // measure 4
1000
1000
0100
1000
0011
0000
1000
0001
0100
0001
1000
0100
0010
0001
0000
0010
,  // measure 5
0001
0000
1000
0001
0100
0000
0001
0100
0010
0100
0001
1000
0100
0010
0000
0100
,  // measure 6
1000
0001
0000
0100
0010
0000
1000
0100
0010
0100
1000
0010
0100
0001
0000
1000
,  // measure 7
0001
0000
0000
0000
0000
0000
1000
0000
0000
0100
0000
0000
0010
0000
0000
0000
0000
0000
0010
0000
0000
0001
0000
0000
0100
0000
0000
0010
0000
0000
1000
0000
0000
0001
0000
0000
0010
0000
0000
0100
0000
0000
1000
0000
0100
0000
0010
0000
,  // measure 8
0001
0001
0100
0001
1100
0000
0000
0000
0101
0000
0000
0001
0100
0010
0000
0010
,  // measure 9
1100
0000
1000
0100
0010
0001
0000
0001
1100
0000
0000
1000
0001
0100
0000
0010
,  // measure 10
1100
0010
0001
0010
0001
0100
0000
0010
1100
0000
1000
0100
0010
0001
0000
1000
,  // measure 11
0101
0000
0000
0000
0000
0000
0000
0000
0000
0000
0000
0000
0000
0000
0000
0000
0000
0000
0000
0000
0000
0000
0000
0000
0001
0000
0000
0000
0000
0000
0000
0000
0000
0000
0000
0000
1000
0000
0000
0000
0000
0000
0100
0000
0000
0000
0000
0000
0010
0000
0000
0000
0000
0000
0000
0000
0000
0000
0000
0000
0001
0000
0000
0000
0000
0000
0000
0000
0000
0000
0000
0000
0000
0000
0000
0000
0000
0000
0000
0000
0000
0000
0000
0000
0001
0000
0000
0000
0000
0000
0000
0000
0000
0000
0000
0000
1100
0000
0000
0000
0000
0000
0000
0000
0000
0000
0000
0000
0001
0000
0000
0000
0000
0000
0000
0000
0000
0000
0000
0000
0010
0000
0000
0000
0000
0000
0000
0000
0000
0000
0000
0000
0001
0000
0000
0000
0000
0000
0000
0000
0000
0000
0000
0000
1000
0000
0000
0000
0000
0000
0000
0000
0100
0000
0000
0000
0000
0000
0000
0000
0010
0000
0000
0000
0000
0000
0000
0000
0001
0000
0000
0000
0000
0000
0000
0000
0010
0000
0000
0000
0000
0000
0000
0000
0100
0000
0000
0000
0000
0000
0000
0000
,  // measure 12
1001
0010
0100
0100
1001
0000
0000
0001
1100
0000
0001
0000
1000
0001
0100
0010
,  // measure 13
1001
0100
0010
0000
0001
0001
0000
0001
1100
0001
0001
0000
1001
0100
0010
0001
,  // measure 14
1100
0010
0100
0001
1000
1000
0000
1000
0110
1000
1000
0000
0001
0100
0010
1000
,  // measure 15
0110
0000
0000
0001
0000
0000
0100
0000
0000
0000
0000
0000
1000
0000
0000
1000
0000
0000
0000
0000
0000
1000
0000
0000
0110
0000
0000
1000
0000
0000
1000
0000
0000
0000
0000
0000
1001
0000
0100
0000
0010
0000
0001
0000
0010
0000
0100
0000
,  // measure 16
1001
0010
0100
0100
1001
0000
0000
0001
1100
0000
0001
0100
0010
1000
0001
0010
,  // measure 17
1100
0001
0010
0000
1001
1010
0000
1010
0101
1000
1000
0010
1100
0001
0010
0100
,  // measure 18
1001
0100
0010
0000
1001
0001
0000
0001
1100
0001
0001
0100
0001
1000
0100
0010
,  // measure 19
1001
0000
0000
0000
0000
0000
0000
0000
0000
0000
0000
0000
0100
0000
0000
0000
0000
0000
0000
0000
0000
0000
0000
0000
0010
0000
0000
0000
0000
0000
0000
0000
0000
0000
0000
0000
1000
0000
0000
0000
0000
0000
0100
0000
0000
0000
0000
0000
0010
0000
0000
0000
0000
0000
0000
0000
0000
0000
0000
0000
0001
0000
0000
0000
0000
0000
0000
0000
0000
0000
0000
0000
0000
0000
0000
0000
0000
0000
0000
0000
0000
0000
0000
0000
0001
0000
0000
0000
0000
0000
0000
0000
0000
0000
0000
0000
1100
0000
0000
0000
0000
0000
0000
0000
0000
0000
0000
0000
0001
0000
0000
0000
0000
0000
0000
0000
0000
0000
0000
0000
0010
0000
0000
0000
0000
0000
0000
0000
0000
0000
0000
0000
0001
0000
0000
0000
0000
0000
0000
0000
0000
0000
0000
0000
0100
0000
0000
0000
0000
0000
0000
0000
0000
0000
0000
0000
0010
0000
0000
0000
0000
0000
0000
0000
0000
0000
0000
0000
1000
0000
0000
0000
0000
0000
0000
0000
0100
0000
0000
0000
0000
0000
0000
0000
0010
0000
0000
0000
0000
0000
0000
0000
,  // measure 20
1001
0010
0100
0100
1001
0000
0000
0001
1100
0010
0001
0100
1001
0100
0010
0100
,  // measure 21
1001
0000
0100
0010
1001
0001
0000
0001
1100
0011
0001
0100
1001
0100
0010
0100
,  // measure 22
1001
0010
0100
0010
1100
1000
0000
1000
0101
1010
1000
0010
1100
0001
0010
0001
,  // measure 23
1100
0000
0000
0000
0000
0000
0001
0000
0000
0010
0000
0000
1100
0000
0000
1000
0000
0000
0000
0000
0000
1000
0000
0000
0101
0000
0000
1010
0000
0000
1000
0000
0000
0000
0000
0000
1000
0000
0100
0000
0010
0000
1001
0000
0010
0000
0100
0000
,  // measure 24
1000
0001
1100
0010
1001
0000
0000
0001
1100
0010
0001
0100
1001
0100
0010
0100
,  // measure 25
1001
0000
0100
0010
1001
0001
0000
0001
1100
0011
0001
0100
1001
0100
0010
0100
,  // measure 26
1001
0000
0010
0000
1100
1000
0000
1000
0101
1010
1000
0000
1100
0001
0010
0001
,  // measure 27
1100
0000
0100
0001
1010
0001
1000
0101
1000
0001
1100
0001
1010
0000
0101
0000
,  // measure 28
0011
0000
0011
0000
0011
0000
0010
0001
1100
0000
0000
0000
1000
0000
0110
0000
1001
0000
0000
0000
0011
0000
0000
0000
1000
0000
0001
0000
0100
0000
0000
0000
,  // measure 29
0010
1000
0001
0010
1100
0000
1000
0110
0000
0000
0011
0000
1000
0001
0010
0000
,  // measure 30
0011
1000
0100
0011
1100
0000
1000
0110
0000
0000
0011
1000
0001
0100
0010
0000
,  // measure 31
0010
1000
0001
0010
1100
0000
1000
0110
0000
0000
0011
1000
1000
0001
0010
1001
,  // measure 32
1100
0010
1001
1010
1100
0000
0000
0100
0011
0000
0001
1000
0001
0100
0010
0000
,  // measure 33
0011
1000
0001
0100
0000
0000
1100
0000
1001
0110
0000
0011
0000
1000
0001
0000
,  // measure 34
0110
0000
1000
0001
1100
0000
1000
0100
1010
0000
0001
1000
0010
0100
0010
1000
,  // measure 35
0011
0100
0001
1000
0110
0000
0000
0000
1001
0000
0000
1000
1000
0000
0000
1001
,  // measure 36
1001
0000
0000
0100
0000
0000
1000
0000
0000
1000
0000
0000
0110
0000
0000
0001
0000
0000
0000
0000
0000
0001
0000
0000
1100
0000
0000
0001
0000
0000
0010
0000
0000
0001
0000
0000
1000
0000
0000
0010
0000
0000
1000
0000
0100
0000
0010
0000
,  // measure 37
0001
0100
0010
0100
1001
0000
0000
0001
1100
0010
0001
0100
1001
0100
0010
0100
,  // measure 38
1001
0000
0100
0010
1001
0001
0000
0001
1100
0011
0001
0100
1001
0100
0010
0100
,  // measure 39
1001
0010
0100
0010
1100
1000
0000
1000
0101
1010
1000
0010
1100
0001
0010
0001
,  // measure 40
1100
0000
0001
0010
1100
1000
0000
1000
0101
1010
1000
0000
1001
0010
1100
0010
,  // measure 41
1001
0000
0000
0000
0000
0000
1100
0000
0001
0000
0100
0000
0010
0000
0000
0010
0000
0000
0100
0000
0000
0100
0000
0000
1001
0000
0000
0000
0000
0000
0000
0000
0000
0101
0000
0000
1001
0000
0000
0100
0000
0000
0010
0000
0000
0100
0000
0000
,  // measure 42
1001
0000
0101
0011
1001
0000
0000
0001
1100
0011
0001
0100
1001
0100
0010
0100
,  // measure 43
1001
0000
0010
0000
1100
1000
0000
1000
0101
1010
1000
0000
1100
0001
0010
0001
,  // measure 44
1100
0000
0000
0000
0000
0000
0000
0000
0000
0000
0000
0000
0000
0000
0000
0000
0000
0000
0000
0000
0000
0000
0000
0000
0001
0000
0000
0000
0000
0000
0000
0000
0000
0000
0000
0000
1000
0000
0000
0000
0000
0000
0100
0000
0000
0000
0000
0000
0010
0000
0000
0000
0000
0000
0000
0000
0000
0000
0000
0000
0001
0000
0000
0000
0000
0000
0000
0000
0000
0000
0000
0000
0000
0000
0000
0000
0000
0000
0000
0000
0000
0000
0000
0000
0001
0000
0000
0000
0000
0000
0000
0000
0000
0000
0000
0000
1100
0000
0000
0000
0000
0000
0000
0000
0000
0000
0000
0000
0001
0000
0000
0000
0000
0000
0000
0000
0000
0000
0000
0000
0010
0000
0000
0000
0000
0000
0000
0000
0000
0000
0000
0000
0001
0000
0000
0000
0000
0000
0000
0000
0000
0000
0000
0000
1000
0000
0000
0000
0000
0000
0000
0000
0000
0000
0000
0000
0010
0000
0000
0000
0000
0000
0000
0000
0000
0000
0000
0000
1000
0000
0000
0000
0000
0000
0000
0000
0100
0000
0000
0000
0000
0000
0000
0000
0010
0000
0000
0000
0000
0000
0000
0000
,  // measure 45
0001
0100
0010
0100
1001
0000
0000
0001
1100
0011
0001
0100
1001
0100
0010
0100
,  // measure 46
1001
0000
0100
0010
1001
0001
0000
0001
1100
0011
0001
0100
1001
0100
0010
0100
,  // measure 47
1001
0010
0100
0010
1100
1000
0000
1000
0101
1010
1000
0010
1100
0001
0010
0001
,  // measure 48
1100
0000
0001
0010
1100
1000
0000
1000
0101
1010
1000
0000
1001
0010
0100
0010
,  // measure 49
1001
0000
1100
1100
0011
0000
0000
0001
1100
0000
0001
0000
0010
0100
0010
0100
,  // measure 50
0011
0000
1000
0010
1001
0001
0000
0001
1100
0001
0001
0000
0011
0100
0010
0100
,  // measure 51
0011
0000
0001
0010
1100
1000
0000
1000
0101
1000
1000
0000
1010
0100
0010
0100
,  // measure 52
1010
0000
0100
0010
1002
1000
0003
1000
0020
1000
1030
0000
1200
0000
0300
0000
,  // measure 53
2000
3000
0000
0000
0000
0000
0000
0000
;
